Jumanji.Welcome.to.the.Jungle.2017.720p.BrRip.x265

seeders: 1
leechers: 2
updated:
Added by g3m696 in Other


ᕦ( ▨̅ ͜▨̅ )ᕥ SPECIAL DEAL - OFFER ᕦ( ▨̅ ͜▨̅ )ᕥ
strongly advises you to use Nord while downloading torrents.
Nord is the safest on the market, and the fastest as well.
No IP Log is saved using Nord, avoid other providers and choose the safest one.
Click here and buy Nord it's on rebates today!
We were able to verify your IP: 3.94.202.172, country: United States.
If we can do that, others can too, protect your privacy with Nord.
is trying the best for you!
ᕦ( ▨̅ ͜▨̅ )ᕥ SPECIAL DEAL - OFFER ᕦ( ▨̅ ͜▨̅ )ᕥ


Jumanji.Welcome.to.the.Jungle.2017.720p.BrRip.x265 Size: 611.7 MB (641413939 Bytes)

Description

hevcbay.com 

Code:General
Unique ID                                : 138670248425439016716788970829860896811 (0x6852EB1B33AB2AD2AAE9A5F678B1002B)
Complete name                            : Jumanji.Welcome.to.the.Jungle.2017.720p.BrRip.x265.HEVCBay.com.mkv
Format                                   : Matroska
Format version                           : Version 4
File size                                : 612 MiB
Duration                                 : 1 h 59 min
Overall bit rate                         : 718 kb/s
Movie name                               : Jumanji.Welcome.to.the.Jungle.2017.720p.BrRip.x265.HEVCBay.com.mkv
Encoded date                             : UTC 2019-01-23 06:20:38
Writing application                      : hevcbay
Writing library                          : hevcbay.com / Lavf58.22.100
Comment                                  : Encoded by hevcbay.com
ENCODED-BY                               : hevcbay.com

Video
ID                                       : 1
Format                                   : HEVC
Format/Info                              : High Efficiency Video Coding
Format profile                           : [email protected]@Main
Codec ID                                 : V_MPEGH/ISO/HEVC
Duration                                 : 1 h 59 min
Bit rate                                 : 665 kb/s
Width                                    : 1 280 pixels
Height                                   : 534 pixels
Display aspect ratio                     : 2.40:1
Original display aspect ratio            : 2.40:1
Frame rate mode                          : Constant
Frame rate                               : 23.976 (24000/1001) FPS
Color space                              : YUV
Chroma subsampling                       : 4:2:0
Bit depth                                : 8 bits
Bits/(Pixel*Frame)                       : 0.041
Stream size                              : 566 MiB (93%)
Writing library                          : Lavc58.42.102 libx265
Default                                  : Yes
Forced                                   : No
Color range                              : Limited

Audio
ID                                       : 2
Format                                   : AAC LC SBR PS
Format/Info                              : Advanced Audio Codec Low Complexity with Spectral Band Replication and Parametric Stereo
Commercial name                          : HE-AACv2
Format settings                          : NBC
Codec ID                                 : A_AAC-29
Duration                                 : 1 h 59 min
Bit rate                                 : 51.7 kb/s
Channel(s)                               : 2 channels
Channel layout                           : C
Sampling rate                            : 48.0 kHz
Frame rate                               : 23.438 FPS (2048 SPF)
Compression mode                         : Lossy
Delay relative to video                  : -148 ms
Stream size                              : 44.0 MiB (7%)
Writing library                          : Lavc58.42.102 libfdk_aac
Language                                 : English
Default                                  : Yes
Forced                                   : No 

https://extraimage.net/image/ckrq
https://extraimage.net/image/ckry
https://extraimage.net/image/ckrQ
https://extraimage.net/image/ckrL

Sharing Widget


Download torrent
Size: 611.7 MB
seeders:1
leechers:2
Jumanji.Welcome.to.the.Jungle.2017.720p.BrRip.x265 - (641413939 Bytes)



To share this torrent use the code below and insert it into comments, status messages, forum posts or your signature.

Torrent: Jumanji.Welcome.to.the.Jungle.2017.720p.BrRip.x265

Trackers

tracker name
udp://tracker.coppersurfer.tk:6969/announce
udp://tracker.open-internet.nl:6969/announce
udp://tracker.leechers-paradise.org:6969/announce
udp://tracker.internetwarriors.net:1337/announce
http://tracker.internetwarriors.net:1337/announce
udp://tracker.opentrackr.org:1337/announce
udp://9.rarbg.to:2710/announce
udp://exodus.desync.com:6969/announce
udp://explodie.org:6969/announce
http://explodie.org:6969/announce
udp://tracker1.itzmx.com:8080/announce
http://tracker3.itzmx.com:6961/announce
http://tracker1.itzmx.com:8080/announce
udp://ipv4.tracker.harry.lu:80/announce
udp://tracker.zer0day.to:1337/announce
udp://tracker.leechers-paradise.org:6969/announce
udp://coppersurfer.tk:6969/announce
µTorrent compatible trackers list

Locations

name
KickassTorrents
Torrent hash: B420DB2AD12995C732B02BF4B0A95F06314FA2EC

ᕦ( ▨̅ ͜▨̅ )ᕥ SPECIAL DEAL - OFFER ᕦ( ▨̅ ͜▨̅ )ᕥ
strongly advises you to use Nord while downloading torrents.
Nord is the safest on the market, and the fastest as well.
No IP Log is saved using Nord, avoid other providers and choose the safest one.
Click here and buy Nord it's on rebates today!
We were able to verify your IP: 3.94.202.172, country: United States.
If we can do that, others can too, protect your privacy with Nord.
is trying the best for you!
ᕦ( ▨̅ ͜▨̅ )ᕥ SPECIAL DEAL - OFFER ᕦ( ▨̅ ͜▨̅ )ᕥ

All Comments

*comments box temporarily disabled*
Report a bug