Tales from the crypt - Racconti dalla tomba (1972) [XviD - Englis...

seeders: 0
leechers: 1
updated:
Added by robbyrs in Other
Torrent reliable.


ᕦ( ▨̅ ͜▨̅ )ᕥ SPECIAL DEAL - OFFER ᕦ( ▨̅ ͜▨̅ )ᕥ
strongly advises you to use Nord while downloading torrents.
Nord is the safest on the market, and the fastest as well.
No IP Log is saved using Nord, avoid other providers and choose the safest one.
Click here and buy Nord it's on rebates today!
We were able to verify your IP: 3.234.245.121, country: United States.
If we can do that, others can too, protect your privacy with Nord.
is trying the best for you!
ᕦ( ▨̅ ͜▨̅ )ᕥ SPECIAL DEAL - OFFER ᕦ( ▨̅ ͜▨̅ )ᕥ


Description

Tales from the crypt - Racconti dalla tomba (1972) [XviD - English Mp3 - Sub Italian] MIRCrew [TNT Village]


 
 

*********************************************

 


Tales from the crypt - Racconti dalla tomba - Freddie Francis (1972) 



 

 

Titolo originale Tales from the Crypt
Paese di produzione Gran Bretagna, USA
Anno 1972
Durata 92 min

Racconti dalla tomba (Tales from the Crypt) è un film horror del 1972, diretto dal regista Freddie Francis, tratto dalle riviste antologiche a fumetti Tales from the Crypt e The Vault of Horror.

I cinque episodi raccontati nel film, sono stati fonte di ispirazione per la serie televisiva I racconti della cripta.

Genere horror
Regia Freddie Francis
Soggetto Johnny Craig, Al Feldstein, William M. Gaines
Sceneggiatura Milton Subotsky
Fotografia Norman Warwick
Montaggio Teddy Darvas
Musiche Douglas Gamley, Johann Sebastian Bach
Scenografia Tony Curtis

 

 

 


 Joan Collins: Joanne Clayton
 Peter Cushing: Arthur Edward Grimsdyke
 Roy Dotrice: Charles Gregory
 Richard Greene: Ralph Jason
 Ian Hendry: Carl Maitland
 Patrick Magee: George Carter
 Barbara Murray: Enid Jason
 Nigel Patrick: Maj. William Rogers
 Robin Phillips: James Elliott
 Ralph Richardson:
 Geoffrey Bayldon: Guida
 David Markham: Prete
 Robert Hutton: Neighbour
 Angela Grant: Susan Blake
 Susan Denny: Sig.ra Maitland
 Manning Wilson: Vicar
 Chloe Franks: Carol Clayton
 Kay Adrian: Sig.ra Davies
 Carlos Baker: Sig.raDavies's Son
 Martin Boddey: Richard Clayton
 Dan Caulfield: Postman
 Melinda Clancy: Sig.ra Carter
 Paul Clere: figlio di Maitland
 Sharon Clere: figlia di Maitland
 Clifford Earl: Sergente di polizia
 Edward Evans: Councillor Ramsey
 Frank Forsyth: Tramp
 Peter Frazer
 Irene Gawre: Sig.ra Phelps
 George Herbert: Dad Greenwood
 Harry Locke: Cook
 Oliver MacGreevy: Maniaco
 Stafford Medhurst:
 Jayne Sofiano
 Peter Thomas:
 Tony Wall: Attendente
 Hedgar Wallace: Ispettore di polizia
 Louis Mansi:
 Bartlett Mullins:

 



 

In una sorta di catacomba, un misterioso frate fa rivivere a cinque borghesi defunti le colpe di cui si macchiarono durante la loro esistenza e il modo in cui furono per esse già puniti sulla terra.........

 

 

 

Five people are trapped in a crypt and are shown their futures by the evil cryptkeeper. They are given the option of avoiding their fates - by avoiding living out the rest of their lives.

 

 

General
Complete name : Tales from the crypt - Racconti dalla tomba (1972) Freddie Francis.avi
Format : AVI
Format/Info : Audio Video Interleave
File size : 699 MiB
Duration : 1h 32mn
Overall bit rate : 1 059 Kbps
Writing application : Nandub v1.0rc2
Writing library : Nandub build 1852/release

Video
ID : 0
Format : MPEG-4 Visual
Format profile : Advanced [email protected] 
Format settings, BVOP : Yes
Format settings, QPel : No
Format settings, GMC : No warppoints
Format settings, Matrix : Default (H.263)
Muxing mode : Packed bitstream
Codec ID : XVID
Codec ID/Hint : XviD
Duration : 1h 32mn
Bit rate : 995 Kbps
Width : 656 pixels
Height : 352 pixels
Display aspect ratio : 1.864
Frame rate : 23.976 fps
Color space : YUV
Chroma subsampling : 4:2:0
Bit depth : 8 bits
Scan type : Progressive
Bits/(Pixel*Frame) : 0.180
Stream size : 657 MiB (94%)
Writing library : XviD 1.1.2 (UTC 2006-11-01)

Audio
ID : 1
Format : MPEG Audio
Format version : Version 1
Format profile : Layer 3
Codec ID : 55
Codec ID/Hint : MP3
Duration : 1h 32mn
Bit rate mode : Variable
Bit rate : 50.7 Kbps
Minimum bit rate : 48.0 Kbps
Channel(s) : 1 channel
Sampling rate : 48.0 KHz
Stream size : 33.5 MiB (5%)
Alignment : Aligned on interleaves
Interleave, duration : 24 ms (0.58 video frame)
Interleave, preload duration : 348 ms
Writing library : LAME3.93 
Encoding settings : -m m -V 1 -q 2 -lowpass 19.5 --vbr-new -b 48






 



Sharing Widget


Download torrent
Size: 699.2 MB
seeders:0
leechers:1
Tales from the crypt - Racconti dalla tomba (1972) [XviD - Englis... - (733164339 Bytes)



To share this torrent use the code below and insert it into comments, status messages, forum posts or your signature.

Torrent: Tales from the crypt - Racconti dalla tomba (1972) [XviD - Englis...

Trackers

tracker name
http://tracker.tntvillage.scambioetico.org:2710/announce
udp://tracker.tntvillage.scambioetico.org:2710/announce
udp://fr33dom.h33t.com:3310/announce
http://tracker2.torrentbox.com:2710/announce
http://tracker.torrentbox.com:2710/announce
http://tracker1.torrentbox.com:2710/announce
http://tracker.podtropolis.com:2711/announce
udp://tracker.1337x.org:80/announce
udp://tracker.openbittorrent.com:80/announce
http://tracker.openbittorrent.com:80/announce
udp://tracker.istole.it:80/announce
http://9.rarbg.com:2710/announce
http://tracker.torrent.to:2710/announce
http://exodus.desync.com/announce
udp://tracker.zer0day.to:1337/announce
udp://tracker.leechers-paradise.org:6969/announce
udp://coppersurfer.tk:6969/announce
µTorrent compatible trackers list

Locations

name
KickassTorrents
Torrent hash: D393326AE7D90B33B729553BF74B07BCB0D131F5

ᕦ( ▨̅ ͜▨̅ )ᕥ SPECIAL DEAL - OFFER ᕦ( ▨̅ ͜▨̅ )ᕥ
strongly advises you to use Nord while downloading torrents.
Nord is the safest on the market, and the fastest as well.
No IP Log is saved using Nord, avoid other providers and choose the safest one.
Click here and buy Nord it's on rebates today!
We were able to verify your IP: 3.234.245.121, country: United States.
If we can do that, others can too, protect your privacy with Nord.
is trying the best for you!
ᕦ( ▨̅ ͜▨̅ )ᕥ SPECIAL DEAL - OFFER ᕦ( ▨̅ ͜▨̅ )ᕥ

All Comments

*comments box temporarily disabled*
Report a bug